<?xml version="1.0" standalone="no"?> <!DOCTYPE svg PUBLIC "-//W3C//DTD SVG 1.0//EN" "http://www.w3.org/TR/2001/REC-SVG-20010904/DTD/svg10.dtd" > <svg xmlns="http://www.w3.org/2000/svg" width="100%" height="100%">
<defs >
<font horiz-adv-x="312" ><font-face
    font-family="Beacon"
    units-per-em="1000"
    panose-1="0 0 0 0 0 0 0 0 0 0"
    ascent="877"
    descent="-430"
    alphabetic="0" />
<missing-glyph horiz-adv-x="224" />
<glyph unicode=" " glyph-name="space" horiz-adv-x="224" />
<glyph unicode="!" glyph-name="exclam" horiz-adv-x="212" d="M165 645Q172 596 169 548T165 452Q163 421 162 391T156 330Q151 292 151 254T135 178Q116 132 120 118T136 80Q128 68 119 63T97 62Q86 67 77 73T66 97Q65 134 62 171T60 238T62 287T61 378Q52 432
54 470T59 546Q60 575 59 604T56 663Q51 774 65 759T119 718Q140 700 150 688T165 645ZM98 25Q85 22 85 20T72 15Q54 11 47 -3T46 -35Q61 -73 100 -67H129Q145 -66 156 -52T157 -13Q142 13 134 21T98 25Z" />
<glyph unicode="&quot;" glyph-name="quotedbl" horiz-adv-x="189" d="M252 647Q229 621 205 596T157 544Q146 531 138 516T119 487Q115 481 110 477T100 467Q92 468 89 470Q78 477 74 495T77 523L200 674Q205 680 212 686T225 691Q235 687 242 680T257 665Q259
663 257 657T252 647ZM123 653Q115 637 105 622T84 593Q75 582 65 572T46 551Q38 539 33 526T19 497Q2 507 1 520T2 546Q8 579 17 610T47 668Q58 682 66 697T84 728Q89 726 96 723T108 715Q126 701 130 687T123 653Z" />
<glyph unicode="#" glyph-name="numbersign" horiz-adv-x="465" d="M420 249Q436 249 445 241T459 215L416 223Q406 225 397 225T378 227Q359 231 345 226T319 204Q287 161 260 116T204 25L194 11Q184 16 175 20T156 30Q138 41 136 51T147 78L231 187Q239 197
246 208T263 234Q242 234 226 236T195 234Q184 230 175 219T159 197Q145 178 133 159T110 119Q99 101 90 82T71 45Q69 41 67 38T62 28Q49 36 39 42T18 55Q3 66 1 76T9 103Q22 122 36 140T65 177Q72 187 79 196T95 214Q98 219 100 224T105 234Q99 239 92 239T79
239T66 239T56 247Q52 254 50 262T44 281Q64 280 80 280T111 278Q134 276 142 281T155 310Q129 314 114 317T92 325T81 337T74 358Q83 366 93 365T114 363Q128 361 142 360T171 357Q188 354 198 370Q215 401 232 431T266 493Q271 502 275 510T293 517Q308 515 321
510T342 492Q345 488 343 480T338 467Q325 445 312 424T285 381Q280 374 277 366T267 347Q287 347 304 346T337 346Q341 346 345 350T351 359Q365 379 377 398T403 437Q412 450 422 461T442 487Q448 496 455 497T473 496Q479 494 484 492Q492 487 500 484T513 473Q518
463 510 458T496 446Q479 421 462 397T425 347Q440 337 456 332T484 309Q467 306 453 302T425 299Q408 300 398 300T382 295T370 281T357 253L420 249ZM205 267Q232 260 249 257T277 258T294 273T306 305Q293 307 280 309T254 313Q239 313 228 302Q221 295 217
287T205 267Z" />
<glyph unicode="$" glyph-name="dollar" horiz-adv-x="289" d="M220 64Q231 50 238 34T254 1Q261 -13 256 -24T239 -41Q227 -47 214 -50T188 -58Q182 -60 176 -60T165 -61Q148 -68 140 -80T136 -112L138 -130Q122 -128 113 -122T97 -106T88 -86T81 -64L65 -68Q53
-70 42 -71T19 -57Q8 -41 2 -27T4 5Q8 15 16 18T34 23Q60 30 86 37T138 52Q144 54 150 56T164 62Q152 85 138 103T105 139Q79 165 56 193T21 256Q8 298 16 320T56 357Q84 370 96 389T109 438Q109 445 110 451T114 465Q127 464 135 463T148 460T159 455T174 444Q169
435 164 426T156 407Q151 395 150 388T150 374T159 361T176 345Q184 338 191 332T207 318Q212 312 217 306T225 292Q227 287 227 281T224 270Q221 264 215 264T203 269Q189 277 179 273T159 263Q148 256 139 248T119 232Q103 219 103 209T119 182Q145 153 170 124T220
64Z" />
<glyph unicode="%" glyph-name="percent" horiz-adv-x="453" d="M440 345Q433 328 420 317T395 295L260 171Q229 144 200 116T136 64Q97 39 79 -7Q73 -21 59 -28T30 -43Q23 -35 17 -28T5 -13Q-8 8 13 16Q25 21 32 28T44 46Q61 79 86 103T143 148Q171 165 196 186T246
230Q280 261 311 293T377 358Q401 380 412 378T440 345ZM67 221Q51 240 46 261T43 303T57 341T85 372Q93 378 101 383T118 394Q134 403 149 403T181 390Q189 383 199 379T219 369Q221 361 222 354T226 342Q258 283 204 244Q188 233 173 223T140 204Q117 191 101
196T67 221ZM397 36Q403 -14 363 -43Q352 -51 339 -57T312 -68Q306 -70 298 -69T283 -65Q260 -56 244 -31T228 20Q228 41 235 58T254 89T281 113T311 130Q316 133 323 132T336 128Q352 122 368 111Q376 105 379 98Q384 83 389 68T397 36ZM337 65Q307 55 294 32T269
-15Q267 -19 269 -27T277 -37Q285 -42 296 -40T319 -32T338 -17T348 1Q350 18 349 34T337 65ZM90 245Q114 244 131 254T165 272Q188 282 185 311Q183 327 174 333T150 331Q144 328 138 325T127 318Q111 304 100 287T90 245Z" />
<glyph unicode="&amp;" glyph-name="ampersand" horiz-adv-x="430" d="M404 173Q422 170 436 159T465 133Q459 132 455 131T445 130Q418 132 395 127T353 108Q342 100 330 93T307 75Q300 67 295 59T289 39Q286 2 284 -34T279 -108Q279 -113 282 -120T288 -133Q241
-119 234 -79Q230 -56 230 -34T228 12V37Q206 40 193 31T166 16Q158 12 150 8T133 -1Q104 -14 72 13Q34 45 13 83T4 167Q15 209 36 244T90 306Q103 317 115 329T140 353L98 407Q80 429 79 448T87 485Q101 511 120 532T168 568Q179 573 182 581T184 603Q179 636
182 667T196 728Q198 733 201 738T207 749Q224 746 238 741T264 719Q224 671 223 595L273 609Q293 614 316 601T349 566Q354 553 352 546T336 541Q316 544 300 542T269 533T242 519T216 503Q195 490 177 476T145 443Q140 437 138 430T132 413Q162 413 184 412T226
414T268 425T320 452Q340 438 356 420T386 381Q397 365 385 354Q379 349 373 345T359 336Q329 319 298 305T238 271Q208 250 181 226T132 171Q123 158 118 141T95 117Q95 106 95 94T97 66Q114 71 127 75T153 84Q204 104 257 119T366 148Q378 150 390 153T404 173Z"
/>
<glyph unicode="&apos;" glyph-name="quotesingle" horiz-adv-x="86" d="M123 653Q115 637 105 622T84 593Q75 582 65 572T46 551Q38 539 33 526T19 497Q2 507 1 520T2 546Q8 579 17 610T47 668Q58 682 66 697T84 728Q89 726 96 723T108 715Q126 701 130 687T123 653Z" />
<glyph unicode="(" glyph-name="parenleft" horiz-adv-x="269" d="M116 382Q118 367 116 354T106 329Q107 322 107 316T110 303Q111 300 114 298T120 294Q128 275 132 256T131 216Q129 207 133 200Q145 178 144 159T132 121Q146 121 149 105Q152 95 147 95T138
91Q133 86 134 77T144 61L172 36Q164 35 161 35T153 34Q156 19 161 7T178 -13Q176 -22 177 -28T182 -40T190 -50T199 -60Q201 -58 202 -59L265 -114Q243 -168 196 -150Q167 -140 143 -123T102 -71Q103 -70 103 -69T106 -67Q104 -67 104 -67T101 -68Q87 -46 75 -23T58
27H57Q57 33 57 40T55 52Q45 70 46 86T57 118Q39 136 36 163T44 216Q40 223 37 228T31 240Q29 247 28 254T27 269Q29 303 29 336T34 403Q35 415 36 421T40 431T50 437T68 443Q63 447 59 449T52 456Q49 468 52 480Q64 513 75 545T100 609Q112 638 126 666T156 720Q165
736 176 749T200 776Q216 793 234 793T272 777Q255 746 238 716T204 654Q187 623 176 583Q170 562 166 540T155 495L142 448Q138 437 135 426T129 402Q127 394 125 389T116 382ZM97 10L89 21Q85 7 97 10ZM109 450Q107 452 107 453T105 457Q102 454 98 448L109 450ZM105
75L102 81Q101 81 100 80T98 79Q99 77 99 76T101 73Q101 73 105 75ZM70 415Q72 413 73 410T77 405L74 417Q72 417 70 415ZM188 -58Q188 -62 189 -64L198 -60L188 -58ZM88 518Q92 516 93 516Q93 516 96 519Q92 521 91 521Q91 521 88 518ZM47 307Q43 309 42 309L41
307L45 302Q45 303 47 307ZM109 31V34H104V31H109ZM91 354V351Q95 349 98 349L91 354ZM140 -10L142 -12Q141 -12 144 -9Q143 -9 143 -8T141 -8Q140 -9 140 -10ZM107 256L109 255L108 258L107 256ZM84 314L82 313L84 312V314ZM73 197L72 198V196L73 197ZM121 293Q121
294 120 294L121 293Z" />
<glyph unicode=")" glyph-name="parenright" horiz-adv-x="341" d="M290 349Q290 347 290 346T290 342Q301 325 298 309T292 273Q287 225 277 186T253 105Q247 91 241 76T227 46Q222 37 215 30T200 14L124 -68Q110 -84 96 -99T67 -129Q39 -153 0 -120Q2 -114 4
-109T9 -99Q14 -89 23 -83Q45 -67 61 -46T89 0T110 53T126 110Q155 226 153 352Q153 357 154 362T156 372Q157 376 158 379T158 385Q152 394 152 402T152 419T155 435T156 452L155 451L164 494Q159 496 157 497T150 500Q155 535 155 571T146 646Q141 665 131 681T109
711T84 739T58 770Q66 772 72 775T84 776Q100 770 116 764T146 746Q167 728 186 707T224 663Q231 655 234 643T243 619Q245 615 247 611T251 604Q290 549 243 526Q238 524 234 521T224 514Q232 506 238 500T251 491Q260 487 264 481T273 464Q276 454 278 449T280
440T276 432T265 422Q278 419 293 418Q287 411 283 406T272 395Q279 389 284 385T294 376Q298 371 300 365T306 353L290 349Z" />
<glyph unicode="*" glyph-name="asterisk" horiz-adv-x="252" d="M275 464Q276 463 276 462T277 459Q254 449 232 441T188 418Q192 409 198 403T212 392T224 379T230 362Q219 362 211 366T195 377T179 388T161 396Q149 376 140 355T131 310Q119 306 111 310T95
323Q93 325 93 327T90 331Q82 343 78 349T68 358T55 360T34 357Q18 355 12 359T0 382Q11 387 21 391T43 399Q68 405 68 429Q68 431 68 434T69 441Q62 445 56 448T42 456Q35 460 28 464T16 474Q12 479 13 487T15 505L72 471Q81 487 81 502T84 533Q106 541 125 541T162
525Q179 510 184 492T180 448Q197 455 209 460T234 471Q257 482 275 464Z" />
<glyph unicode="+" glyph-name="plus" horiz-adv-x="339" d="M69 145Q41 142 31 150T17 187Q17 191 18 195Q72 177 135 182Q140 217 146 250T146 317Q168 314 181 307T202 285T210 246T210 182Q224 182 231 182T246 182T260 182T282 184Q298 184 307 176T325 152Q304
156 290 156T263 156T236 152T202 150Q198 138 196 134T192 128T190 123T190 106Q192 57 170 18Q147 26 136 44T127 86L130 125V150L69 145V145Z" />
<glyph unicode="," glyph-name="comma" horiz-adv-x="161" d="M123 69Q134 58 135 34T126 -36Q117 -63 108 -80T89 -108T69 -127T47 -142Q40 -147 32 -150T14 -155Q8 -156 0 -150Q-6 -143 -6 -132T0 -112Q5 -106 11 -102T25 -92Q33 -87 41 -81T51 -64Q31 -46 25
-24T22 19T37 58T63 85Q85 99 98 96T123 69Z" />
<glyph unicode="-" glyph-name="hyphen" horiz-adv-x="316" d="M225 188Q245 187 254 177T271 153Q275 146 275 138T278 119Q226 118 179 123T84 121Q61 118 48 121T27 148L25 160Q20 188 24 193T58 192Q102 182 141 185T225 188Z" />
<glyph unicode="." glyph-name="period" horiz-adv-x="173" d="M68 87Q88 81 108 74T139 43Q143 33 143 25T136 8Q133 5 132 2T128 -6Q123 -11 120 -16T111 -25Q92 -37 79 -38T55 -34T38 -16T26 13Q24 19 26 27T30 42Q33 50 38 58T45 74Q48 82 53 84T68 87Z" />
<glyph unicode="/" glyph-name="slash" horiz-adv-x="373" d="M349 490Q366 513 382 517T426 507L285 293Q263 260 240 229T198 163Q174 118 145 78T88 -4Q85 -9 84 -14T80 -24L59 -70Q53 -84 47 -97T32 -126Q15 -134 3 -124T-23 -103Q-21 -98 -20 -93T-16 -84Q-1
-56 13 -28T45 26Q65 55 82 86T117 147T154 207T197 263Q240 311 272 363T336 470Q339 475 342 480T349 490Z" />
<glyph unicode="0" glyph-name="zero" horiz-adv-x="278" d="M247 338Q249 330 249 325T249 312Q248 296 248 277T245 239Q243 216 243 194T241 149Q241 139 242 134Q240 100 240 88T234 55Q231 39 228 24T221 -9Q216 -32 200 -45T160 -60Q115 -61 83 -40T29 20Q15
46 8 74T0 133Q2 146 3 158T8 183Q14 201 17 219T25 255T34 292T49 327Q59 343 68 358T89 390Q103 394 107 397T115 400Q128 400 152 401T204 390Q212 387 219 382T231 368Q234 363 238 359T247 338ZM203 222Q206 236 211 271T218 320Q216 333 206 355T164 356Q150
339 142 322T120 235Q116 219 116 213T104 171Q87 129 92 91T110 -6Q115 -15 121 -23T141 -33Q151 -30 155 -25T163 -14Q184 -2 188 82T203 222Z" />
<glyph unicode="1" glyph-name="one" horiz-adv-x="159" d="M113 404Q127 404 132 399T138 375Q139 355 139 335T136 295Q134 265 132 235T126 175Q122 140 117 105T110 33Q109 17 113 1T121 -31Q125 -46 121 -51T101 -55Q100 -55 100 -55T98 -54Q70 -48 56 -42T36
-26T30 -1T30 39Q30 76 36 113T48 187L61 296L55 299Q57 305 53 304T36 287T20 271T12 260Q10 280 2 277T-15 281Q-20 286 -15 287T0 293Q7 301 13 303T28 314T47 332T67 358Q71 361 72 368T75 374Q78 393 85 399T113 404Z" />
<glyph unicode="2" glyph-name="two" horiz-adv-x="240" d="M236 358Q249 348 249 337T240 311Q230 295 222 279T204 245Q189 216 174 187T145 128Q136 108 130 88T116 47Q111 36 106 19L93 -27Q109 -32 125 -30T158 -26T190 -25T222 -38Q212 -43 206 -47T194
-52Q165 -56 136 -60T78 -66Q60 -68 44 -61T13 -41Q-5 -26 2 -4Q8 17 12 38T22 80Q24 86 25 92T28 103Q42 136 55 169T84 235Q99 266 117 295T152 355Q155 361 158 366T157 379Q151 387 144 386T129 381Q90 364 71 327Q60 307 51 307T22 323Q64 377 124 399Q139
404 155 404T185 394Q198 386 211 378T236 358Z" />
<glyph unicode="3" glyph-name="three" horiz-adv-x="224" d="M187 284Q175 267 163 251T137 217L111 184Q122 179 129 176T145 171Q164 166 179 156T208 132Q219 122 218 115T207 97Q198 87 191 76T176 54Q161 26 143 2T101 -42Q97 -45 94 -48T89 -55Q81 -72
70 -74T44 -72Q18 -66 -4 -54Q-31 -42 -8 -19Q-6 -17 -5 -17Q23 -6 41 17T81 60Q117 92 129 141Q117 145 106 147T83 155Q59 163 37 175Q27 182 19 190T0 207Q5 214 8 219T16 229L109 322Q116 329 121 334T129 345T134 359T139 381Q125 379 112 378T86 372Q69 365
55 370T27 383Q33 394 42 395T59 397Q78 400 96 401T134 404Q158 406 179 401T217 373Q228 359 228 351T216 329Q208 318 202 307T187 284ZM142 302Q141 301 141 300Q141 299 143 299Q143 299 144 301Q142 301 142 302Z" />
<glyph unicode="4" glyph-name="four" horiz-adv-x="323" d="M277 390Q296 384 296 362L293 284Q292 261 291 239T288 193Q287 185 287 177T284 161L280 134Q279 117 278 100T279 66Q283 21 280 -22T272 -108Q260 -119 248 -121T225 -120T202 -111T180 -98Q175
-95 171 -87T165 -71Q163 -51 164 -31T166 9Q166 29 162 33T137 35Q120 33 104 33T72 34Q38 39 21 59T1 112Q-2 143 4 170T19 226Q30 265 41 304T63 385Q67 399 81 403Q95 407 108 403T133 391Q138 387 141 380T145 365Q145 345 144 325T141 285Q136 255 132 226T120
168Q117 153 111 140T97 112Q92 101 86 91T74 69Q98 58 118 62T159 74Q164 76 166 83T169 97L199 314Q201 330 204 345T211 375Q214 401 239 398Q257 397 277 390Z" />
<glyph unicode="5" glyph-name="five" horiz-adv-x="276" d="M239 397Q249 398 257 395T271 381Q263 373 253 370T231 365Q198 363 166 361T98 356Q97 299 88 242T77 121Q92 128 102 133T121 141Q138 146 155 150T189 158Q208 161 222 155T245 136T257 109T258
82Q256 71 252 63Q245 46 238 29T223 -5Q215 -25 205 -40T171 -62Q163 -64 158 -71T145 -83Q126 -92 107 -101T68 -116Q53 -121 40 -113T14 -96Q13 -84 20 -81T34 -73Q51 -65 68 -57T103 -38Q119 -28 129 -15T144 18L159 99Q160 103 160 108T159 121Q113 104 82
80Q74 74 66 71T47 74Q36 80 25 87T13 111Q12 116 12 121T12 132Q16 177 19 221T26 311L32 376Q34 394 42 400T68 402Q97 394 125 394T183 394Q197 394 211 395T239 397Z" />
<glyph unicode="6" glyph-name="six" horiz-adv-x="276" d="M132 220Q164 220 193 214T244 180Q265 152 265 119T259 53Q256 38 251 19T238 -19T219 -51T191 -68Q162 -75 132 -75T73 -61Q41 -45 25 -18T3 42T1 108T10 172Q19 214 32 252T62 330Q67 343 73 361T89
398T109 430T134 450Q148 455 168 449T198 431Q203 425 203 418T199 404T191 391T183 378Q160 338 149 302T132 220ZM171 -42Q189 -36 199 -20T215 16T221 58T222 95Q222 110 218 129T206 163T185 188T150 194Q132 190 122 173T106 135T99 93T94 57Q97 42 100 22T111
-16T133 -41T171 -42Z" />
<glyph unicode="7" glyph-name="seven" horiz-adv-x="233" d="M263 392Q273 386 274 379T265 367Q242 360 233 343T216 308Q199 273 185 238T157 167Q147 143 138 119T119 70Q91 -10 103 -95Q104 -96 102 -103Q84 -108 67 -107T33 -98Q12 -90 4 -75T4 -40Q11 -21
16 -3T23 36Q24 46 30 54T41 71L61 135Q78 192 101 244T149 351L152 370Q126 371 102 372T54 372Q25 370 3 391Q7 393 9 395T15 397Q44 398 73 399T131 395Q157 390 184 399Q203 405 223 404T263 392Z" />
<glyph unicode="8" glyph-name="eight" horiz-adv-x="306" d="M271 392Q292 382 294 370T291 341Q280 307 263 276T232 212Q229 206 224 198T219 182Q218 172 225 163T239 144Q250 127 260 112T271 78Q271 60 271 39T262 3Q253 -11 237 -23T206 -44Q195 -50 180
-59T149 -72T117 -73T93 -51Q64 -49 47 -39T20 -12T6 23T0 63Q-2 83 10 103T35 138Q46 151 57 163T83 187Q91 193 95 196T97 209Q95 217 83 228T67 248Q48 283 48 318T64 383Q73 400 83 404T115 409Q137 410 159 409T204 404Q218 402 237 400T271 392ZM199 33Q200
42 200 55T195 81T184 105T164 123Q150 107 134 93T113 58Q111 47 112 37T113 15Q114 1 114 -14T121 -43Q131 -36 143 -28T168 -11T188 9T199 33ZM144 245Q182 266 197 300T219 373Q207 374 193 376T167 379T144 375T130 358Q121 332 125 302T144 245Z" />
<glyph unicode="9" glyph-name="nine" horiz-adv-x="272" d="M262 289Q264 274 267 259T268 229Q263 199 258 169T244 110Q234 78 222 47T196 -17Q187 -40 176 -61T154 -103Q146 -117 131 -121T102 -120Q85 -113 75 -107Q62 -99 62 -93T69 -72Q86 -41 103 -11T127
55Q129 67 130 80T134 109H101Q59 111 30 140T0 211Q-1 258 13 300T46 383Q51 392 64 396Q75 398 85 399T105 402Q166 412 209 381T262 289ZM157 197Q161 216 164 234T172 272Q167 290 164 309T155 347Q147 371 122 374Q101 377 84 366T58 335Q56 329 55 323T52
311Q50 295 47 279T44 246Q44 229 45 212T52 179Q55 168 64 158T84 142Q95 135 106 135T127 140T143 154T152 177Q153 186 157 197Z" />
<glyph unicode=":" glyph-name="colon" horiz-adv-x="234" d="M207 337Q203 329 202 321T208 302Q211 298 211 291T208 278Q200 267 191 256T170 237Q136 212 104 239Q87 254 83 271T89 309Q102 332 113 345T136 362T165 360T207 337ZM171 126Q169 113 167 101T161
76L134 61Q119 53 103 53T73 65Q60 75 57 85T58 112Q60 119 62 125T67 137Q96 145 120 139T171 126Z" />
<glyph unicode=";" glyph-name="semicolon" horiz-adv-x="247" d="M147 116Q131 125 113 129T76 139Q72 140 66 137T58 129Q53 114 50 102T47 79T55 58T79 35L89 30Q82 12 76 -2T67 -31Q64 -40 74 -52T94 -66Q102 -67 111 -60T121 -42Q122 -31 127 -24T139 -9Q147
-1 154 6T167 23Q184 52 182 75T147 116ZM217 309Q215 303 215 299T212 292Q200 276 188 260T163 228Q153 217 141 211T113 213Q97 221 87 235T78 265Q82 294 96 317T131 360Q134 363 136 363Q153 357 169 352T200 339Q207 335 210 326T217 309ZM97 71L96 73H98L97
71Z" />
<glyph unicode="&lt;" glyph-name="less" horiz-adv-x="287" d="M263 262Q242 245 221 228T177 194Q155 179 132 167T86 140Q87 138 87 133L212 88L222 59Q211 61 203 61T188 65Q172 75 155 77T120 84Q84 93 48 105Q10 118 0 154Q13 177 31 193T73 221Q102 236
129 253T186 288Q211 303 229 297T263 262Z" />
<glyph unicode="=" glyph-name="equal" horiz-adv-x="321" d="M44 240L225 223Q270 219 287 175Q276 175 267 174T249 175Q223 181 197 181T144 177Q127 175 110 176T76 180Q46 186 40 197T44 240ZM55 96Q67 94 79 96Q132 100 184 102T291 100Q293 100 296 101T301
104Q296 121 286 127T260 134Q206 136 154 136T48 138Q42 138 36 137T23 133Q26 109 31 103T55 96Z" />
<glyph unicode="&gt;" glyph-name="greater" horiz-adv-x="287" d="M218 183Q233 171 243 155T259 119Q242 113 227 109T196 97Q166 83 137 67T78 34Q63 26 56 24T39 30Q30 39 29 53T36 77Q50 94 65 107T101 128Q117 135 131 142T160 157Q165 159 168 161T177
165Q175 168 173 174Q165 179 158 183T142 190Q119 195 99 206T60 233Q46 244 41 259T34 290Q32 302 41 306T62 305L146 272Q159 267 163 264T179 245H128L148 229Q165 218 183 207T218 183ZM181 196L180 199L179 197L181 196Z" />
<glyph unicode="?" glyph-name="question" horiz-adv-x="282" d="M281 515Q280 508 278 502T272 487Q267 473 267 467T275 450L248 377Q246 368 242 364Q223 340 208 313T178 259Q173 251 166 244Q138 213 141 171Q144 115 108 82Q77 88 63 105T44 155Q39 186
42 215T49 273Q51 290 57 306T71 340Q76 351 81 361T93 383Q92 383 92 384H93V383Q101 367 107 366T124 378Q131 387 136 397T146 418Q157 439 169 459T182 506Q182 511 185 515T190 524Q195 533 195 537T189 555L162 514Q160 529 165 541T176 565Q195 621 177
672Q163 709 132 691Q106 677 82 662T37 623Q33 618 30 612T24 600Q15 580 12 559T8 516Q8 499 12 485T34 463Q36 462 37 461T40 457Q41 457 42 453Q40 451 39 449T35 446Q23 443 12 447T-9 459T-23 479T-29 505Q-26 620 52 695Q76 718 102 727T154 733T203 717T247
684Q253 679 257 672T255 654L268 643Q265 641 262 638T252 627Q259 625 264 623T273 618Q277 614 280 609T283 598Q283 578 283 557T281 515ZM135 -1Q138 -4 141 -11T147 -27T149 -44T148 -56Q144 -65 139 -72T124 -78Q107 -76 91 -74T60 -66Q51 -63 45 -53T34
-30T30 -3T32 22Q51 25 67 28T101 35L135 -1ZM134 458Q142 450 141 445T135 435L93 385Q101 405 109 425T134 458ZM245 610Q251 597 253 596T266 602Q261 604 256 606T245 610ZM151 493L145 477Q143 478 143 479T141 481L147 496L151 493ZM209 555Q211 558 212
559T213 563Q213 565 212 566T209 569Q205 565 205 563Q205 561 206 560T209 555ZM270 518Q270 518 267 521Q264 518 263 514L264 513Q266 511 267 511L270 518ZM250 533Q251 534 251 535Q251 536 252 537Q249 540 248 539Q246 539 245 536L250 533ZM243 660L254
655L246 664L243 660ZM259 562Q260 563 260 564Q260 565 258 565Q258 564 258 564T257 562H259Z" />
<glyph unicode="@" glyph-name="at" horiz-adv-x="509" d="M280 364Q403 358 453 317T496 190Q492 148 480 118T453 64T422 22T394 -14Q384 -26 371 -31T343 -35T317 -25T298 -2Q293 9 289 21T279 50Q270 35 263 23T249 -4Q234 -34 218 -39T176 -42Q156 -40 139
-32T111 -5Q109 -3 108 10T105 40T104 77T108 113Q119 160 133 189T160 245Q165 255 170 265T181 284Q190 300 211 299Q228 297 244 298T277 297Q288 295 298 292T320 285Q323 283 325 279T333 267Q320 265 311 263T292 262Q278 264 270 259T255 243Q241 221 232
198T214 150Q206 125 201 101T194 51Q193 45 193 39T194 21Q200 28 204 31T211 39Q224 62 236 84T263 130Q275 148 287 165T313 200Q324 216 342 213L357 211Q389 209 395 200T391 160Q382 133 378 105T371 48Q371 45 371 42T372 33Q388 48 401 69T425 115T443
165T452 212Q454 234 446 258T417 301T364 333T287 343Q242 341 211 332T155 300T112 243T74 155Q55 103 59 59T79 -17T120 -66T165 -83Q186 -82 204 -77T236 -66T260 -55T275 -46Q280 -43 281 -52T272 -74T237 -98T165 -110Q118 -110 86 -88T35 -32T8 44T0 125Q0
164 21 207T79 286T167 344T280 364Z" />
<glyph unicode="A" glyph-name="A" horiz-adv-x="422" d="M376 17Q377 20 385 22T399 23Q414 21 417 6Q419 -2 417 -12T410 -33T375 -60T304 -10Q288 33 274 76T257 166L249 366Q248 377 247 387T243 409H238Q231 388 225 367T213 325Q205 288 198 252T185 177Q180
151 178 124T170 71Q168 52 165 34T157 -3Q152 -23 142 -30T111 -35Q97 -34 84 -33T58 -27Q41 -20 32 -6T16 25Q5 52 3 80T0 137Q0 172 1 206T4 275Q6 313 9 351T18 427Q21 456 24 484T34 540Q39 560 46 578T61 615Q69 636 85 643T119 648Q151 643 181 637T291
555Q295 550 304 539Q306 537 307 532T307 524Q305 521 300 519T292 518Q280 521 253 556T202 604Q170 614 152 601T132 555Q130 522 130 489T125 424Q114 387 116 347T105 268Q101 256 102 243T104 217Q105 191 107 165T114 111Q116 114 117 117T120 124Q131 159
141 193T162 262Q179 310 196 358T230 454Q235 466 237 478T245 502Q247 509 251 515T262 524Q293 538 323 523Q327 521 330 515T334 504Q339 469 338 435T335 366Q329 281 332 198T363 31Q367 19 368 10T376 17Z" />
<glyph unicode="B" glyph-name="B" horiz-adv-x="388" d="M322 662Q366 671 379 625Q384 605 384 585T378 545Q370 516 362 487T357 470Q344 416 341 406T308 364L249 296Q225 262 222 259T207 241L240 236Q246 234 252 233T266 229Q311 212 324 201T346 176T359
145T361 112Q361 107 358 104L283 15Q278 10 273 5T203 -39Q173 -61 165 -69T150 -86Q135 -108 114 -111T73 -97Q57 -86 67 -66Q84 -32 152 18T245 98L263 122Q278 145 270 165T236 193Q224 197 194 199T153 207Q145 210 138 215T120 228Q153 267 189 309T241 393Q256
431 270 469T299 547Q307 571 307 584T300 608Q288 613 277 604T256 583Q235 557 216 531T183 474Q176 458 171 442T160 409Q149 368 135 328T119 244L109 98Q107 72 107 48T107 -3Q108 -62 77 -25L65 -15Q54 1 50 7T41 27Q29 52 32 84T36 148Q38 203 38 257T37
367Q38 428 30 487T6 607Q4 614 3 621T0 635Q28 636 100 630T116 539Q115 531 111 513T107 480Q107 480 107 480T107 454Q113 452 116 452Q119 458 123 464T129 478Q153 511 194 559T289 649Q296 654 305 657T322 662Z" />
<glyph unicode="C" glyph-name="C" horiz-adv-x="338" d="M338 641Q349 636 359 621T363 584Q350 542 338 501T325 466Q323 463 321 455Q306 419 282 397T232 395Q222 418 233 438T255 487T290 552T314 617Q302 646 263 645T223 644Q203 641 193 629T179 592T171
544T161 490Q151 437 148 427T142 401Q141 398 140 395T139 389L126 225Q126 219 123 214T121 197Q111 164 111 149T113 117Q114 88 114 52Q115 44 116 35T121 18Q129 4 142 -12T183 -22Q189 -23 201 0T216 33T214 69T211 105Q201 168 248 200T301 231T302 212T290
169T280 126T274 90L265 52Q263 41 260 30T255 8Q253 -11 245 -27T224 -53T200 -66T161 -69Q142 -64 123 -56T88 -37Q75 -29 64 -18T44 6Q32 26 21 46T8 91Q6 108 4 126T1 162Q0 204 0 244T1 327Q1 348 4 368T9 410Q10 415 11 420T12 431Q13 497 49 559Q55 577
62 588T76 616Q87 639 104 652T153 668Q189 674 220 671T288 663Q302 657 310 654T338 641ZM39 231L36 234L35 233Q34 233 34 232L36 228L39 231Z" />
<glyph unicode="D" glyph-name="D" horiz-adv-x="424" d="M393 596Q410 591 419 576T431 542Q434 504 432 467T422 393Q420 382 419 371T414 349Q406 288 400 258T383 186Q375 151 362 120T331 60Q326 46 294 21T253 -9Q250 -13 244 -21T230 -37Q225 -41 221 -44T212
-52Q190 -78 161 -78T108 -53Q115 -33 130 -21T161 2Q172 10 181 20T248 73Q264 96 282 122T313 179Q318 193 320 207T325 235Q338 296 347 357T363 481Q365 497 366 513T360 553Q355 558 352 563T346 570Q340 571 333 570T322 565Q272 536 261 508T227 426Q214
381 191 313T155 201Q141 160 134 119T119 35Q116 22 115 10T111 -15Q109 -23 110 -37T76 -32T42 18Q29 57 29 103T31 198Q32 239 34 279T37 360Q38 398 39 435T36 510Q33 537 24 563T4 615Q-4 641 2 647T28 651Q99 643 114 638T145 619Q149 611 155 602T157 576Q119
438 132 400Q137 389 139 382T151 382L170 410Q189 467 199 487T223 535Q251 573 261 578T294 597Q311 601 339 603T393 596Z" />
<glyph unicode="E" glyph-name="E" horiz-adv-x="338" d="M320 649Q336 644 349 634T370 609Q375 599 378 588T379 567Q368 530 360 507T329 452Q318 435 297 419T259 404Q242 406 237 417T238 444Q251 471 263 498T295 550Q308 574 309 585T302 611T280 629T250
638Q233 641 226 637T211 619Q178 575 142 450Q141 403 180 358T223 307T232 292Q243 274 235 262T208 248Q197 246 160 199T119 124T117 58T134 -2T162 -8T198 32T244 82Q251 90 257 98T272 113Q284 123 298 127T309 109T291 64T258 20Q241 0 224 -20T188 -58Q171
-73 151 -80T108 -81Q101 -79 95 -79T81 -77Q64 -74 50 -67T24 -48T6 -18T0 25Q1 47 1 68T3 111Q6 137 14 162T42 210Q122 281 151 285Q173 289 143 319T89 421T79 550T140 643T214 676T262 668T295 657T320 649ZM167 322Q168 323 168 324Q168 324 166 326Q166
325 166 324T165 322H167Z" />
<glyph unicode="F" glyph-name="F" horiz-adv-x="275" d="M334 637Q363 637 367 619T364 592T344 584Q302 587 260 585T176 563L172 535Q172 504 172 474T171 412L167 377Q166 366 166 356T167 334Q183 336 197 338T225 341Q238 342 251 342T268 332T266 319T250
313Q237 308 219 303T184 290Q172 285 167 271L166 251Q162 215 158 180T150 108Q151 87 155 54T158 5T154 -26Q128 -38 96 -53T15 -66Q19 -35 19 -1T27 73T40 135T48 179Q53 211 58 240T65 301Q63 344 66 386T68 473Q67 502 67 531T65 569Q51 572 38 574T11 580Q-3
584 -13 608T-23 647Q-23 654 -17 657T-3 659L79 648Q106 641 133 640T188 641Q219 637 257 637T334 637Z" />
<glyph unicode="G" glyph-name="G" horiz-adv-x="354" d="M327 574Q355 574 355 554Q354 537 354 521T353 488Q349 449 346 411T337 333Q334 307 332 286T328 243T322 195T314 135Q307 87 289 41T240 -40T163 -92T53 -99Q28 -94 22 -90T13 -38T12 19T34 13T77
-20T113 -32T132 -23T161 7T197 54T220 102T232 162T239 208Q240 231 242 254T246 300Q237 315 231 304T222 281Q215 253 208 234T184 194Q168 166 153 148T113 120Q95 113 74 121T40 145Q7 189 3 238T2 338Q4 355 7 370T13 403L33 514Q34 519 35 524T38 534Q41
548 47 564T63 596T84 626T109 649Q129 662 150 667T190 672T221 671T240 669Q256 669 268 661T292 647T318 624T325 585Q320 580 317 577T262 578Q261 578 261 578T260 577Q273 577 295 576T327 574ZM246 516Q248 531 252 545T260 577Q258 577 307 574Q300 606
262 622T202 638T144 613T90 542Q82 508 75 474T62 404Q60 371 59 351T64 304T82 270T114 256Q163 255 188 313T230 431Q240 461 241 477T246 516Z" />
<glyph unicode="H" glyph-name="H" horiz-adv-x="361" d="M337 617Q339 594 337 581T336 544Q336 512 336 480T335 416Q335 393 332 371L322 270Q321 265 321 261T322 252Q318 201 315 151T309 49Q307 29 308 9T310 -53L308 -91Q280 -88 257 -79T222 -58T206 -32T199
1Q197 26 200 60T205 130Q205 138 207 145T210 159Q210 175 211 190T214 222T215 254T209 286L119 276Q118 270 118 264T118 253Q118 249 119 246T119 238Q115 204 111 170T102 102Q97 73 98 32T102 -38Q106 -82 67 -60T18 -35T4 -27T0 -12T3 17Q14 85 17 152T24
289Q28 343 25 397T23 505Q25 540 21 579T17 654Q17 668 21 672T40 679Q86 662 101 654T122 621Q127 600 123 580T118 540T117 513T117 485L120 353Q122 331 142 334L219 345Q221 353 222 360T223 374L229 525Q231 554 234 583T231 650Q233 675 255 676Q276 676
317 652Q337 640 337 617ZM224 237Q224 239 223 239H222V237H224Z" />
<glyph unicode="I" glyph-name="I" horiz-adv-x="229" d="M304 639Q296 633 292 632Q278 631 265 632T239 631Q222 629 218 624T211 601L177 363Q175 345 173 327T171 289Q173 254 168 220T161 150Q160 135 161 120T162 90Q161 90 161 90T160 89Q161 89 161 89T163
90Q163 76 163 64T164 29T83 -30Q60 -7 67 51Q68 67 68 79T71 103Q75 149 78 194T87 285Q95 360 103 434T119 583Q120 591 119 597T119 615Q106 614 93 613T41 605T9 620T31 646T64 654T102 658L242 669Q258 671 287 675T312 656Q313 654 304 639ZM120 -29Q113
-29 102 -30T78 -34T53 -38T34 -41Q28 -43 21 -44T8 -47T1 -51T2 -58Q7 -65 14 -71T35 -70Q98 -60 125 -58Q192 -48 204 -48T228 -48Q237 -47 239 -40T247 -12Q236 -14 219 -14T120 -29Z" />
<glyph unicode="J" glyph-name="J" horiz-adv-x="275" d="M362 628L363 626L239 607Q244 592 246 584T249 569T250 554T252 532Q252 515 252 498T253 464Q253 447 253 431T252 398L242 193L237 110Q234 85 231 68T218 30Q216 25 210 9Q203 -18 185 -31T141 -50Q118
-55 96 -59T51 -62T18 -52T2 -32T2 -11T42 -26T99 4Q123 47 134 71T146 144T150 233Q150 250 150 268T151 303T152 339T155 375Q160 401 162 425T164 473T164 521T163 573Q163 577 162 581T159 591Q148 589 139 587T119 582Q104 577 68 588T80 619Q86 622 122 632T184
641Q224 645 236 646T270 651T313 656T362 628Z" />
<glyph unicode="K" glyph-name="K" horiz-adv-x="372" d="M385 98Q399 89 400 66T399 20Q398 19 397 18T394 18Q353 40 313 62T172 186Q143 219 132 226T113 238T101 240Q101 235 101 230T102 219Q103 181 112 129T123 39Q123 29 125 20T130 -22T127 -61T98 -64Q84
-62 71 -57T32 -40T3 -14T0 15T1 70T4 123T5 150T9 179T14 207T17 235L25 627Q22 658 27 658T52 658Q129 645 129 636T128 594Q124 538 123 483T116 374Q114 355 114 336T115 293Q121 297 124 299T131 304Q163 334 187 369T230 444Q246 476 259 509T305 594Q325
630 332 599Q351 579 351 562T353 537Q338 502 332 485T295 425T238 365T180 319Q172 311 154 297T124 273L158 252L259 179Q291 159 322 139T385 98Z" />
<glyph unicode="L" glyph-name="L" horiz-adv-x="292" d="M99 2Q105 2 124 7T168 18T219 31T269 49T295 48T300 15Q298 8 283 8T251 4T218 -3T195 -8Q168 -16 142 -24T89 -43Q68 -51 53 -58T25 -68T-1 -67T-19 -42T-20 10T-13 73T-5 135T4 189Q14 228 18 266T29
345Q34 382 40 417T46 490Q46 502 46 524T47 570T51 615T62 646Q72 660 76 662T97 670T138 672T192 659Q163 606 158 588T145 554T135 519T132 482Q131 440 127 399T117 315Q116 306 115 290T110 255T102 222T97 185T93 152Q89 128 87 110T84 67T84 22T99 2Z" />
<glyph unicode="M" glyph-name="M" horiz-adv-x="499" d="M418 626Q435 627 450 611T470 562T473 493Q470 456 466 420T458 347Q453 293 449 240T447 134Q447 106 448 85T459 26Q468 8 469 -4T468 -29Q459 -53 446 -60T374 -38Q366 -25 366 -14T369 19Q374 61
375 103T378 187Q380 264 388 339T406 490Q408 500 408 510T403 531Q401 527 399 525T395 517Q384 488 373 459T351 400Q340 366 331 333T313 265L304 237Q302 233 300 230T295 226Q284 225 273 224T251 227Q241 231 232 239T216 258Q204 278 195 299T174 341Q159
373 144 405T113 470Q112 473 104 481Q102 460 101 442T99 406Q99 381 100 356T103 306Q103 295 101 285T99 263Q98 205 96 148T124 18Q142 -12 128 -44Q122 -58 114 -64T93 -64Q45 -51 33 -42T7 -23Q4 -21 2 -16T0 -6L6 117Q6 144 5 170T4 224Q5 262 5 299T2 375Q-1
417 0 458T1 541Q1 558 1 574T1 608Q-5 640 15 651T60 654Q93 643 96 636T106 607T122 568T145 524T169 472T192 418T218 366Q224 354 228 342T238 316L253 288L264 323Q275 363 308 480Q315 503 339 568Q351 600 418 626Z" />
<glyph unicode="N" glyph-name="N" horiz-adv-x="390" d="M295 620Q327 622 340 611T356 565Q357 549 357 534T355 503L342 244Q340 213 338 183T336 121Q335 97 337 73T341 24Q342 13 354 -36T338 -62T262 -34Q258 -20 255 -12T252 1T247 21T231 61T213 110T197
161T185 217Q180 242 175 259T164 292T150 324T135 366Q127 390 120 414T101 465Q99 462 98 459T96 453Q96 432 96 411T97 369Q96 350 96 332T93 296Q92 282 91 269T89 241Q89 219 90 198T92 155Q94 105 95 56T100 -43Q101 -59 102 -73Q74 -63 51 -59T11 -38H10Q8
0 4 38T0 115Q2 197 5 278T12 442Q12 458 12 473T11 504Q6 535 8 564T9 623Q8 650 14 657T46 662Q89 660 107 618Q115 600 120 582T132 545L220 265Q225 251 227 237T234 209Q237 198 240 189T247 168H255L259 215Q261 251 263 287T266 360Q268 411 268 460T271
561Q271 570 271 579T272 598Q275 619 295 620Z" />
<glyph unicode="O" glyph-name="O" horiz-adv-x="367" d="M328 474Q341 410 339 272Q337 251 334 230T328 188Q320 138 308 91T276 -3Q267 -26 250 -31T214 -47T185 -61T161 -63Q132 -58 108 -49T65 -23T33 18T10 103T0 176Q2 208 5 239T15 302Q22 330 33 418Q38
460 51 499T99 631Q116 681 129 672T153 659Q159 654 168 650Q185 642 194 634T207 620T209 605T202 578Q191 542 169 506T136 434Q134 426 132 418T125 380T113 265T108 62Q109 53 110 40T120 -10T148 -28T176 0Q181 16 187 27T199 50Q219 97 231 146T250 246Q252
261 253 275T255 305Q257 330 258 354T260 403Q259 429 258 456T246 525Q239 545 227 561T207 595Q260 588 273 578T304 559T328 474ZM106 389H105H106Z" />
<glyph unicode="P" glyph-name="P" horiz-adv-x="344" d="M356 601Q360 588 363 575T368 548Q373 499 367 454T352 362Q341 312 319 272T267 194Q251 172 227 167T172 185Q168 188 165 190T157 194Q148 186 148 175T141 137T131 74T128 9Q133 -93 124 -83T104
-70T82 -57T53 -39Q25 -26 18 -15T16 23Q24 67 25 112T28 202L31 298Q31 331 33 363T35 428T34 494T23 560Q18 577 13 593T2 625Q-2 639 1 642T17 648Q48 651 76 647T148 621Q154 516 156 504T160 481L167 478Q172 495 178 512T200 561T245 613Q263 626 284 630T332
625Q341 621 347 616T356 601ZM293 537Q298 557 304 589T289 612Q260 591 254 583T241 564Q227 539 213 514T194 459Q186 411 177 364T158 269Q156 258 156 248T157 226Q167 229 173 234T185 245Q211 275 231 308T262 383Q271 421 276 460T293 537Z" />
<glyph unicode="Q" glyph-name="Q" horiz-adv-x="367" d="M301 133Q308 130 320 138T340 144T354 139T365 128Q367 99 361 98Q301 90 296 88T288 77Q283 58 277 40T266 2Q258 -32 231 -48T163 -60Q113 -53 73 -21T17 58Q6 92 2 126T2 194Q7 229 7 263T12 332Q20
401 36 465T83 592Q91 609 98 624T113 656Q138 655 163 637T209 609Q221 604 222 600T217 586Q212 578 207 571T183 540T161 498T152 462Q149 449 143 439Q138 429 136 404T131 348T123 265T116 198Q118 85 120 75Q121 66 130 40Q174 -58 195 -33Q203 -7 211 17T229
67Q215 70 205 68T187 60T170 48T151 38Q148 82 181 103Q189 108 199 112T221 118Q232 120 236 125T242 138Q246 164 250 188T256 239Q260 287 265 351T225 477Q208 498 198 510T182 538Q208 542 220 538T246 524Q266 504 296 460T326 392Q325 360 324 328T321
264Q320 244 317 225T311 186Q309 172 307 160T301 133Z" />
<glyph unicode="R" glyph-name="R" horiz-adv-x="419" d="M408 631Q427 618 434 603T437 565Q421 480 376 406Q368 393 362 380T347 354Q331 330 315 306T281 259Q272 246 263 235T245 213Q256 181 266 154T284 98Q292 69 306 47T341 5Q351 -4 357 -4T376 -3T377
-19T335 -42Q312 -47 282 -38T234 2Q223 23 212 43T195 88Q190 110 182 131T166 175Q165 177 163 178T156 185L139 92L130 25Q136 -90 119 -82T93 -71T81 -66Q64 -60 48 -54T17 -39Q12 -36 8 -29T4 -15Q-1 14 13 41L38 162Q39 200 41 237T41 312Q39 355 34 398T23
484Q21 492 19 500T16 516Q11 552 -3 583T-40 645Q8 656 33 660T79 664Q92 658 102 636T118 599T126 554T131 469Q131 464 134 458T142 441Q147 450 148 475T165 532T188 585T206 619T236 634Q325 647 341 648Q358 649 375 646T408 631ZM352 560Q355 571 358 580T355
604Q348 627 331 624T296 620Q225 622 216 540T196 398Q190 360 184 324T170 249L168 224Q174 222 175 222Q184 237 192 252T212 282Q245 324 270 372T319 468Q330 490 337 513T352 560ZM279 289L277 288L279 287V289Z" />
<glyph unicode="S" glyph-name="S" horiz-adv-x="338" d="M293 607Q316 600 325 589T333 556Q332 528 324 504T307 455Q301 436 292 419T271 387T250 355T230 322Q216 326 214 334T214 351Q216 365 220 378T228 406Q239 444 249 481T268 557Q272 572 268 578T246
591Q235 595 224 598T201 605Q157 614 141 576Q130 548 121 521T107 463Q100 420 98 405T110 345Q117 322 137 305Q157 288 178 272T240 206T295 112T283 24Q281 20 280 16T277 8Q270 -5 262 -16T238 -33H239Q226 -36 215 -41T191 -50T166 -56T137 -55Q122 -52
107 -51T77 -45Q62 -41 47 -39T20 -22T7 1Q5 25 3 49T0 96Q-1 119 13 135T46 153L81 41Q83 33 85 24T97 13Q108 13 120 16T138 26Q148 37 154 51T166 80Q169 88 169 97T172 114Q177 130 171 143T150 196T122 246T96 267Q77 281 61 298T34 336Q25 352 19 368T8 402Q-2
444 28 502Q60 584 72 610Q77 621 83 630T98 647Q104 652 114 652T132 650Q164 642 196 634T260 616L293 607ZM30 410L29 412L28 411L30 410Z" />
<glyph unicode="T" glyph-name="T" horiz-adv-x="212" d="M274 644Q284 627 288 613Q293 600 279 600Q248 601 219 596T160 585Q170 540 170 500T166 418Q162 388 158 358T150 298L142 180Q154 18 154 1T156 -35Q162 -82 154 -81T131 -73Q114 -65 97 -55T63 -28Q59
-24 57 -18T55 -5Q53 70 57 143T67 288Q72 352 76 416T77 546Q77 551 77 556T75 566L36 559Q24 561 -6 554Q-8 552 -9 552T-15 556Q-30 551 -46 555T-70 587Q-75 606 -57 611Q-27 620 7 625T67 636L99 641Q133 647 170 650T245 658Q257 660 262 658T274 644Z" />
<glyph unicode="U" glyph-name="U" horiz-adv-x="350" d="M284 603Q294 617 307 625T306 555T291 402T295 254Q297 227 297 200T298 146Q298 129 298 114T297 81Q294 23 251 -16Q239 -27 217 -33T171 -42T123 -42T85 -33Q59 -20 49 2L12 91Q6 111 2 133T0 176Q7
280 7 382T6 589Q6 595 6 601T4 613Q34 638 47 638T74 637Q81 636 88 632T106 607T117 574Q119 540 118 507T115 441Q115 430 115 419T116 396Q117 370 117 345T117 293Q116 275 112 257T106 221Q104 199 104 177T106 134Q107 123 132 22Q136 16 163 13T201 14T221
37T234 78T239 124Q242 179 243 233T247 342Q249 392 253 440T268 538Q273 588 284 603Z" />
<glyph unicode="V" glyph-name="V" horiz-adv-x="223" d="M357 707Q396 660 392 658Q370 644 353 627T322 589T294 549T266 508Q242 476 230 438T208 362Q194 309 182 258T158 152Q152 124 150 96T143 40Q139 8 135 -23T126 -87Q43 -67 33 -60Q25 -40 18 -22T22
59T33 161Q31 188 33 215Q35 277 24 336T-1 455Q-12 503 -25 550T-53 645Q-54 647 -53 649T-52 654Q-32 663 -13 662T23 653T51 630T69 599Q80 569 88 538T104 475Q111 446 115 418T126 361Q129 347 140 336Q143 342 145 348T150 362Q173 439 215 506T304 639Q317
656 357 707Z" />
<glyph unicode="W" glyph-name="W" horiz-adv-x="522" d="M621 628Q587 592 569 545Q558 515 544 486T516 428Q493 374 482 318T460 205Q452 158 449 112T440 17Q438 2 435 -13T427 -44Q426 -49 424 -53T417 -58Q405 -61 373 -51T331 -36T312 -20Q299 -8 296 5T292
35Q294 84 292 110Q287 155 284 198T275 286Q273 303 271 321T265 360Q255 351 250 342T241 324T237 305T232 286Q219 243 208 201T186 115Q176 77 168 38T150 -40L146 -57Q142 -82 117 -79Q109 -78 84 -56T46 -18T34 17Q40 72 39 104Q38 158 37 211T34 319Q32
395 23 468T-15 614Q-19 622 -21 629T-26 645Q-31 660 -28 666T-8 675Q16 677 34 669T64 635Q84 587 100 538T124 438Q132 382 138 327T140 214Q139 211 140 208T141 199Q152 201 155 208T160 221Q180 283 204 342T257 460Q262 468 273 484T299 527T339 590L385
166H391Q395 176 396 181Q407 244 426 304T471 424Q488 463 505 502T537 582Q550 619 578 642Q607 665 651 655L621 628Z" />
<glyph unicode="X" glyph-name="X" horiz-adv-x="430" d="M450 603L443 592Q433 576 422 561T400 531Q381 503 362 476T323 420Q314 406 305 393T287 365Q279 352 274 339T275 289Q288 245 304 217T339 158T390 82T431 24T447 -5Q453 -21 443 -37T407 -36T297
2Q294 10 290 16T282 31L285 30L283 31Q255 72 241 93T207 159Q205 165 202 170T197 181Q192 192 185 192T170 185L167 182Q158 168 149 155T131 128Q123 115 80 26T31 -81Q13 -75 -1 -68T-23 -43Q29 26 31 34Q71 124 91 150Q123 206 134 225Q138 231 141 237T147
249Q162 272 151 301Q141 330 131 359T112 417Q100 458 90 498T69 579Q65 596 62 611T53 643Q47 663 67 668Q79 671 91 673T114 677Q134 678 148 668T169 638Q177 613 196 547T226 443T243 393Q250 404 255 411T265 425L401 637Q418 663 445 653Q452 650 459 649T450
603ZM304 174V172L306 173L304 174ZM113 151L112 153L111 151H113Z" />
<glyph unicode="Y" glyph-name="Y" horiz-adv-x="246" d="M444 642Q433 634 427 629T413 621Q390 610 376 592T346 555L260 455Q246 440 233 425T205 396Q190 383 197 364Q204 344 204 328T189 292Q181 281 180 264T178 231Q177 205 177 180T178 129Q178 120 177
111T176 91L170 -43Q169 -69 139 -76Q120 -81 103 -78T69 -69Q50 -62 50 -41Q51 -15 50 11T49 64T51 116T59 168Q62 179 62 190T62 213Q62 229 61 244T62 276Q67 314 56 347T24 413Q19 421 15 428T13 445L-15 492L-80 607L-107 659Q-98 666 -86 670T-60 674T-35
673T-14 665Q12 649 26 625T56 578Q60 572 59 564T59 547Q63 546 66 545T72 543Q92 532 97 514T109 477L113 466V467Q115 461 117 456T121 445Q127 442 134 444T146 436Q152 425 160 425T179 433Q185 438 190 443T200 454Q227 492 256 526T308 602Q313 611 319
619T333 635Q343 646 353 651T380 652Q394 648 409 647T444 642ZM41 528Q41 509 43 506T61 505Q56 511 55 519T41 528ZM106 456L102 453L105 449Q105 451 106 451T107 454L106 456ZM102 412Q105 412 106 413L103 416L100 413L101 412Q101 412 102 412ZM76 524H74L75
522L76 524Z" />
<glyph unicode="Z" glyph-name="Z" horiz-adv-x="384" d="M400 648Q429 657 463 648T518 616Q516 612 515 610T512 606Q477 584 455 552T406 488Q389 468 371 449T336 407Q317 381 297 358T263 306Q246 271 225 239T183 172Q183 171 183 171T182 170Q165 138 150
107T118 44Q116 40 116 35T113 22Q130 25 144 27T174 32Q219 42 264 51T356 70Q370 72 384 72T412 71Q422 71 428 71T437 67T443 58T450 39Q433 26 413 25T373 23Q346 24 320 19T267 7Q241 0 217 -10T164 -24Q153 -25 143 -32T122 -45Q93 -63 67 -56T15 -35Q9 -33
5 -24T0 -8Q1 6 3 20T12 46Q29 78 49 109T87 172Q113 217 138 262T189 352Q208 384 228 415T268 479L319 562Q321 564 321 568T322 577Q310 579 298 580T275 582Q252 584 230 585T185 590Q168 592 150 595T115 603Q104 605 95 612T80 633Q96 646 114 646T149 642Q169
639 187 634T226 627Q271 620 314 627T400 648Z" />
<glyph unicode="[" glyph-name="bracketleft" horiz-adv-x="272" d="M25 148Q23 299 32 445T52 742Q106 770 168 774T299 774Q296 767 295 763T292 758Q272 752 252 746T211 736Q192 733 174 729T154 707T153 661T153 608Q152 580 152 553T148 498Q144 469 139
442T129 386Q127 375 125 364T122 340Q120 332 117 327T116 310T120 274T117 227Q115 219 119 194Q121 185 122 176T115 161Q120 147 124 135T127 108L122 90Q123 79 124 71T124 56Q124 50 122 11T137 -45T175 -71T223 -77T280 -67Q282 -86 274 -93T257 -103Q233
-113 209 -122T159 -137Q124 -145 91 -132T27 -87Q-12 -48 4 1Q7 10 6 36Q5 38 5 43Q10 64 15 85T27 126Q29 132 25 148Q24 148 24 149L25 148ZM114 159L115 160L114 159ZM130 484Q130 486 131 487H126V484H130Z" />
<glyph unicode="\" glyph-name="backslash" horiz-adv-x="252" d="M202 -13Q207 -25 212 -36T222 -60Q232 -82 208 -84Q191 -85 179 -79T158 -57Q147 -36 137 -15T119 30Q101 84 85 138T50 247Q39 278 27 308T4 370Q-1 387 -4 404T-11 439Q2 440 9 440T20 438T28
432T34 419Q51 379 67 340T98 261Q116 213 132 165T165 68Q173 47 182 27T202 -13Z" />
<glyph unicode="]" glyph-name="bracketright" horiz-adv-x="305" d="M264 728Q273 722 276 715T280 696Q282 672 278 651T268 609Q260 573 256 537T247 463Q242 419 234 377T220 291Q218 274 218 257T217 222L213 179Q208 141 207 103T210 26Q211 12 211 -1T210
-29Q210 -44 210 -59T208 -89Q208 -109 202 -115T179 -120Q174 -119 170 -119T161 -116Q143 -104 129 -108T98 -116Q78 -120 59 -121T19 -124Q14 -124 10 -121T0 -116V-110L27 -103Q41 -100 54 -97T81 -90Q101 -85 109 -72T115 -35Q111 18 111 68T123 168Q134 221
138 275T148 384Q151 413 156 441T164 498Q169 549 173 601T182 708Q165 710 150 712T118 716Q100 718 82 719T45 723Q23 726 6 752Q11 754 15 757T23 760Q31 762 38 762T53 761Q88 759 122 757T192 753Q211 752 229 746T264 728Z" />
<glyph unicode="^" glyph-name="asciicircum" horiz-adv-x="275" d="M225 534Q228 486 237 445T275 378Q277 377 285 371Q275 360 255 355T224 356Q212 363 208 371T199 395Q196 398 195 407T194 427T192 448T188 461Q182 454 177 450T168 440Q158 429 152 423T141
413T129 402T113 386Q108 380 101 376T87 367Q79 362 70 358T53 348Q42 342 30 343T9 354Q0 364 0 372T9 394Q21 409 29 419T46 439T63 459T85 485Q105 507 127 526T163 572Q184 569 204 562T225 534Z" />
<glyph unicode="_" glyph-name="underscore" horiz-adv-x="798" d="M794 -88Q811 -88 819 -97T833 -132Q816 -131 799 -130T765 -129Q745 -128 725 -129T684 -129Q647 -129 611 -129T537 -128Q518 -128 500 -127T462 -126Q430 -126 398 -127T333 -129Q303 -130
273 -129T213 -128Q179 -128 146 -128T78 -128Q56 -128 35 -128T-9 -129Q-21 -129 -23 -126T-29 -104Q-21 -103 -13 -103T3 -102Q54 -100 105 -98T207 -94Q248 -92 288 -91T369 -89Q450 -88 531 -89Q573 -89 613 -89T696 -90Q721 -91 745 -90T794 -88Z" />
<glyph unicode="`" glyph-name="grave" horiz-adv-x="122" d="M95 369Q91 369 91 370Q80 386 64 397T34 423Q24 436 17 451T1 481Q-2 488 1 494T12 506Q22 515 35 508Q43 503 50 498T61 481Q62 476 67 472Q77 462 82 451T90 427T94 401T98 376Q98 373 95 369Z" />
<glyph unicode="a" glyph-name="a" horiz-adv-x="341" d="M268 33Q285 58 313 86T371 134Q358 104 347 82T326 43T306 13T289 -14Q279 -26 266 -31T239 -35T213 -25T194 -2Q188 9 184 21T174 50Q165 35 158 22T144 -4Q130 -34 113 -39T71 -42Q51 -40 34 -32T6
-5Q5 -3 4 9T1 39T0 77T4 113Q15 160 28 189T55 245Q60 255 65 265T76 284Q86 300 106 299Q123 297 139 297T172 296Q223 290 230 284T248 273Q251 271 253 267T261 255Q248 253 239 251T220 250Q174 263 166 258T150 242Q136 221 127 198T109 150Q101 125 96 101T89
50V21Q96 27 100 30T106 38Q120 61 132 84T158 129Q170 148 183 165T209 200Q220 216 237 212Q241 211 244 211T252 211Q284 209 290 200T286 160Q277 133 273 105T266 48Q266 45 266 42T268 33Z" />
<glyph unicode="b" glyph-name="b" horiz-adv-x="306" d="M268 175Q263 155 257 136T249 95Q270 109 296 121T336 136L283 85Q279 80 272 72T256 56T240 39T228 26Q216 10 196 -5Q181 -16 167 -24T140 -26Q129 -20 132 -11T137 6Q139 12 145 23T157 47T168 71T176
89L216 228Q220 241 223 251T230 272T237 292T242 318Q237 313 232 310T223 301Q197 268 178 243T145 178Q133 144 123 110T100 41Q95 25 104 7Q110 -7 105 -23T89 -48Q80 -54 67 -50T48 -36Q46 -32 45 -28T42 -22Q19 -3 14 22T6 73Q5 82 5 105T5 153T5 200T7 228Q18
335 31 437Q40 503 50 567T80 696Q81 701 82 706T86 716Q92 732 110 729Q119 727 127 725T145 721Q156 719 165 718T186 716Q212 717 230 702T246 660Q244 636 239 613T228 566Q213 506 190 449T138 335Q133 325 126 317T116 297Q109 273 104 249T94 201Q92 192
91 183T89 166Q89 162 91 158T95 146L111 176Q128 214 148 248T196 314Q211 332 226 343Q235 351 246 355T270 354Q282 347 290 332T296 303Q290 271 283 239T268 175ZM130 513Q126 488 123 464T114 414L121 411Q126 419 130 427T139 445Q151 476 163 506T186 568Q194
594 199 620T210 673Q212 682 211 690T199 704Q188 709 179 705T164 694Q159 689 158 682T156 666L133 522Q133 520 132 518T130 513Z" />
<glyph unicode="c" glyph-name="c" horiz-adv-x="253" d="M137 -36Q141 -32 150 -21T169 2T187 25T197 39Q217 59 237 86T283 134Q271 110 264 95T251 67T237 42T218 11Q198 -30 176 -47T133 -66T92 -56T58 -29L19 11L0 71Q-1 128 5 183T31 293Q39 317 53 339T82
384Q84 388 89 391T98 395Q138 396 176 389T252 370Q254 369 255 367T259 363Q236 337 229 307T214 245Q211 233 207 221T198 198Q179 203 172 214T167 246Q169 264 171 282T175 320Q177 328 177 336T178 359Q167 354 159 351T146 342Q139 334 134 324T126 303Q119
273 113 243T103 182Q100 156 101 131T99 80Q94 39 111 8Q116 -3 122 -13T137 -36Z" />
<glyph unicode="d" glyph-name="d" horiz-adv-x="407" d="M476 738Q494 732 497 723T492 697Q472 660 452 625T413 552Q397 521 382 490T356 426Q341 378 342 326Q343 311 338 296T328 264Q326 255 323 247T321 230Q326 206 321 184T314 138V137Q316 110 319 83T325
25Q330 29 334 31T341 37Q362 67 383 90T438 136Q427 106 417 85T398 47T380 16T360 -14Q351 -29 341 -44T321 -73Q319 -75 316 -77T308 -80Q287 -81 267 -81T225 -74Q217 -56 211 -38Q206 -22 201 -4T195 31Q195 40 195 49T194 67Q194 75 194 81T192 96Q190 96
189 96T186 97L176 82L128 -21Q115 -48 89 -55Q66 -61 47 -57T15 -41T-5 -11T-8 30Q3 101 25 166T89 292Q106 315 127 318T172 320Q189 319 206 316T244 310Q248 317 248 324T252 339Q254 343 256 347T256 353Q248 370 251 387T255 422Q248 424 247 424T239 427V435Q241
443 241 447Q238 504 255 556T291 660Q301 686 318 705T355 743Q361 748 370 752T388 755Q430 751 476 738ZM200 235Q205 246 206 258T212 285Q187 279 170 268T143 239Q126 208 111 177T87 111Q85 101 81 92T74 74Q69 54 64 34T63 -11Q68 -5 72 -1T78 8Q109 65
139 121T200 235ZM444 699Q445 701 444 706T440 712Q436 713 431 713T424 710Q416 699 407 689T394 665Q383 631 375 597T357 528Q357 527 360 524Q364 526 364 526Q379 545 389 566T408 610T425 655T444 699ZM241 144Q237 152 234 155Q234 156 232 155T228 152Q230
150 232 147T236 141L241 144ZM263 442Q265 443 265 444T268 447L263 451L259 445L261 443Q262 442 263 442ZM243 194Q243 196 241 198H239Q238 198 238 197Q238 196 238 195T239 192L243 194ZM265 172Q269 174 270 174L267 178H266Q265 178 265 177V172Z" />
<glyph unicode="e" glyph-name="e" horiz-adv-x="265" d="M258 362Q281 355 276 337Q274 332 273 328T268 318Q246 280 217 245T152 178Q139 166 127 153T105 126Q99 116 98 105T96 82Q96 65 109 45T140 14Q148 20 161 29T183 46Q215 75 247 97T295 137Q293 126
290 115Q288 106 285 95T276 76Q260 50 237 32T185 -8Q168 -20 151 -20T110 -14Q76 -5 48 19T8 73Q6 77 6 81T3 93Q2 103 1 113T0 134T3 159T11 192Q19 223 33 253T60 313Q65 324 71 335T85 357Q89 363 94 368T104 379Q123 399 157 393Q165 391 174 391T192 389Q204
387 211 383Q233 369 258 362ZM124 230Q195 301 214 347Q194 353 189 353T173 341Q151 318 138 292T119 238Q119 236 120 234T124 230Z" />
<glyph unicode="f" glyph-name="f" horiz-adv-x="220" d="M247 727Q259 727 269 709T285 666T295 617T295 584Q291 569 289 558T285 535T277 508T261 471Q247 454 234 430T196 371Q193 366 186 356T171 336T157 317T151 307Q150 297 149 280T148 244T147 207T145
179Q152 176 159 177T174 179T190 179T206 170L169 157Q140 145 140 116Q139 92 139 68T137 21Q135 0 130 -20T123 -62Q120 -88 119 -115T116 -168L113 -210Q105 -209 102 -209T96 -208T90 -206T81 -204Q51 -198 51 -165Q51 -145 51 -125T50 -84Q49 -46 49 -10T49
65V95Q39 93 29 90T9 86T-7 92T-19 115Q-8 119 3 123T26 131Q47 136 53 148T62 181Q65 235 67 288T78 395Q86 452 98 506T124 615Q128 631 138 650T163 687T200 715T247 727ZM261 625Q261 639 259 651T245 677Q238 680 232 679T220 675T212 667T208 658Q200 646
196 630T187 595T179 558T169 519Q167 515 167 511L150 391Q149 385 149 379T157 365Q161 372 165 377T171 389Q215 442 237 502T261 625Z" />
<glyph unicode="g" glyph-name="g" horiz-adv-x="320" d="M280 294Q278 263 278 233T276 172Q274 146 272 121T272 71Q273 58 273 41T272 6T269 -29T266 -59L257 -113Q251 -161 235 -205T190 -290Q172 -316 142 -328Q117 -338 92 -344T40 -353Q24 -354 18 -350T8
-330Q-2 -283 0 -239T31 -153Q48 -127 74 -108T130 -84Q131 -95 126 -101T113 -113Q75 -142 60 -180T40 -264Q40 -275 43 -285Q47 -304 70 -300Q96 -295 111 -280T135 -241Q143 -217 150 -189T164 -132T174 -74T180 -20Q180 -17 181 -3T184 32T188 76T191 121T194
158T195 179Q193 177 188 161T175 123T161 75T148 27T136 -10T130 -26Q121 -35 107 -40T79 -44T54 -35T38 -10L19 65Q17 68 17 72T15 81L16 80Q12 109 15 137T26 208Q33 234 40 258T55 309Q60 325 70 335T98 348Q124 351 150 354T202 350Q206 349 209 348T217 344Q211
315 186 322Q169 327 159 321T144 300Q132 271 121 242T107 180Q105 155 103 131T101 82Q100 66 103 51T108 18H114Q116 21 118 24T123 31Q136 75 149 117T173 204Q178 219 177 235T178 267Q179 286 184 290T208 300Q243 309 280 294ZM15 84Q14 85 14 87L15 84Z"
/>
<glyph unicode="h" glyph-name="h" horiz-adv-x="347" d="M304 102Q304 98 305 94T308 81Q328 97 344 111T377 135Q364 98 354 78T329 43Q312 24 287 21T239 27Q203 42 198 82Q193 111 191 141T185 202Q169 186 163 167T152 127Q142 96 134 65T116 3Q114 -5 111
-12T103 -27Q96 -41 89 -48T74 -57T55 -59T31 -55Q17 -52 12 -42T6 -18Q5 14 5 45T4 108Q4 116 4 124T3 146Q5 164 6 180T10 214T15 253T23 304Q28 353 30 401T38 499Q43 540 51 580T67 661Q72 688 78 715T90 769Q92 778 95 786T101 806Q114 806 126 806T150 804Q165
802 171 795T177 772Q177 762 176 753T173 733Q161 656 146 580Q140 546 133 513T117 446Q115 436 116 432Q121 374 116 318T100 205Q95 170 88 136T74 67Q72 57 81 46Q92 76 103 106T126 166Q138 196 151 226T178 287Q191 317 204 346T232 407Q243 408 255 410T280
411Q297 409 304 399T309 371Q307 351 305 333T301 294Q300 277 300 261T299 228Q298 224 299 221T299 213Q294 199 294 185T297 158T302 130T304 102Z" />
<glyph unicode="i" glyph-name="i" horiz-adv-x="134" d="M83 40Q93 53 103 67T123 95T144 119T164 134Q157 117 145 94T121 49T98 13T84 -2Q77 -2 62 -1T41 4Q26 8 20 22T12 53Q10 67 10 86T9 120Q9 121 9 127T10 140T11 155T9 167Q8 182 8 192T9 214T13 238T21
269Q26 276 29 284T43 295Q57 297 71 298T101 287Q87 263 87 237T87 183Q88 170 87 151T84 112T82 72T83 40ZM92 357Q71 351 58 360T42 391Q37 433 48 472T76 550Q78 555 85 560T98 566Q110 568 119 562T135 546T143 522T142 497Q131 474 122 451T104 404Q99 393
97 381T92 357Z" />
<glyph unicode="j" glyph-name="j" horiz-adv-x="239" d="M195 119Q202 113 212 114T232 122T251 136T266 149Q270 141 268 132T259 116T246 102T233 91Q225 86 222 82T218 72T218 61T220 45Q223 9 223 -26Q224 -67 222 -107T215 -189Q210 -233 204 -278T174 -362Q165
-377 152 -385T122 -396T90 -395T58 -385Q43 -378 34 -367T21 -343T15 -314T13 -282Q11 -237 12 -192T23 -102Q27 -80 35 -43T51 35T66 114T75 174Q70 174 65 167T52 147T30 118T-7 84Q0 110 5 125T14 150T22 166T31 181Q39 195 45 208T59 236Q64 245 74 255T91
273Q101 287 119 286T154 283Q176 279 184 266T192 236T187 200T179 165Q177 156 177 151T179 141Q181 138 187 130T195 119ZM188 -40Q188 -12 188 16T183 72Q183 75 182 85T177 98Q168 102 166 95T162 83Q157 72 154 60T149 36Q138 -14 125 -62T107 -162Q105 -184
103 -213T101 -271T110 -326T137 -369Q150 -344 156 -320T168 -266Q169 -258 169 -252T172 -238Q179 -188 183 -139T188 -40ZM150 337Q132 331 124 341T112 367T109 400T111 426Q112 437 115 455T124 492T138 526T159 546Q171 551 181 547T199 534T210 512T214
489Q216 491 213 479Q204 461 197 442T181 403Q179 397 176 387T170 366T161 347T150 337Z" />
<glyph unicode="k" glyph-name="k" horiz-adv-x="319" d="M283 33Q289 39 296 53T313 84T331 114T349 134Q343 114 337 93T325 53T313 19T300 -6Q284 -24 264 -28T220 -26Q163 -8 140 50Q135 64 130 77T120 105Q113 94 108 85T98 65Q94 58 98 54Q106 42 103 31T98
8Q93 -11 90 -30T82 -69Q60 -76 40 -72T0 -60Q-5 -58 -8 -52T-10 -21T-2 53T18 188Q26 281 43 371T80 552Q81 559 85 574T93 607T100 640T106 664Q117 665 125 657T141 637T154 610T167 585Q159 545 152 506T140 427Q138 407 134 388T127 350T123 311T123 271Q136
290 148 308T173 345Q190 368 208 389T251 427Q260 433 268 435T288 433Q310 423 306 400Q305 396 305 393T303 385Q280 328 254 273T185 171L163 149Q170 140 177 132T189 114Q194 103 194 92T198 70Q205 50 212 31T239 -2Q254 2 264 12T283 33ZM174 306Q169 298
160 283T142 250T125 216T119 189Q146 206 170 234T214 294T249 358T273 416Q237 399 215 368T174 306Z" />
<glyph unicode="l" glyph-name="l" horiz-adv-x="236" d="M247 641Q262 636 264 632T264 613L229 457Q227 446 223 436T215 414Q204 382 195 356T177 306T156 261T131 216Q117 193 109 182T101 156Q101 143 101 131T99 105Q97 91 95 69T92 23T89 -21T87 -53Q87
-55 88 -56T92 -59L102 -64Q103 -62 115 -48T141 -16T166 15T179 32Q190 49 198 64T216 91T235 115T261 136Q252 107 243 86T226 49T210 19T195 -7Q192 -19 183 -34T160 -62T133 -85T107 -96Q84 -98 65 -91T31 -62Q23 -50 18 -36T10 -6T6 25T1 55Q-1 65 0 75T1
97Q-2 155 5 211T25 323Q34 364 43 404T63 485Q73 520 86 553T119 619Q132 644 155 645Q178 647 201 648T247 641ZM217 549Q219 562 221 575T215 602Q202 603 198 596T191 580Q188 569 185 560T178 539Q168 512 158 486T137 432Q132 418 129 403T122 372Q117 349
114 328T108 283Q106 268 105 253T102 222Q104 222 104 222T107 221L112 229Q153 304 177 384T217 549Z" />
<glyph unicode="m" glyph-name="m" horiz-adv-x="521" d="M496 75Q510 95 522 110T551 135Q548 117 544 105T535 83T525 64T515 42Q498 25 481 19T448 13T415 21T386 37Q377 59 381 87T394 143T411 191T419 219Q414 214 402 196T375 157T349 119T335 98L290 49Q288
47 284 45T276 41Q266 40 255 44T235 56T219 73T211 93Q209 110 210 128T213 164Q213 169 214 180T216 204T219 229T221 248Q207 239 195 221T177 192Q165 169 150 150T121 108Q115 98 107 89T91 71Q86 65 83 59T77 47T70 39T60 40L41 48Q15 59 7 74T1 119Q2 128
2 137T3 155Q3 156 6 166T7 180Q12 206 14 232T18 289Q19 293 19 297T18 306Q38 317 57 313T97 305Q106 303 108 295T110 277Q108 246 107 215T104 149L125 175L204 262Q237 298 290 282Q296 262 297 242T296 200T291 158T288 114L306 130Q314 140 325 152T348
178T371 203T390 226Q395 237 405 246T426 262T449 272T470 272Q486 266 483 249Q477 214 471 180T458 110Q455 94 455 78T463 43Q472 49 480 59T496 75Z" />
<glyph unicode="n" glyph-name="n" horiz-adv-x="327" d="M272 42Q292 57 315 84T356 135Q358 94 347 66T321 20Q293 -5 267 0T215 28Q203 37 201 51Q196 77 194 101T204 149L231 206Q238 222 242 240T241 282Q233 274 227 270T217 260Q182 206 147 153T85 38Q81
30 77 22T67 6Q40 5 21 20T0 61Q-1 78 2 110T9 176Q13 215 19 258Q24 262 24 269T25 283Q25 287 25 294T27 309T30 322T34 330Q36 332 44 332T62 331T80 324T89 310L91 271Q86 259 87 245T87 216Q85 204 83 193T78 169L83 165Q87 169 91 171T98 179Q121 214 149
244T210 302Q224 314 243 319Q257 322 265 317T284 299Q295 285 297 271T296 240Q288 204 283 167T264 94Q259 83 258 70T272 42Z" />
<glyph unicode="o" glyph-name="o" horiz-adv-x="244" d="M198 102Q202 98 206 98Q213 98 219 101T233 110T250 122T274 135Q272 124 267 111T245 85Q229 71 219 67T191 68Q189 68 188 69Q185 58 182 48T174 26Q166 6 153 -11T113 -29Q68 -30 28 -1Q15 8 9 21T1
50V145Q1 150 1 154T0 163L6 227Q14 273 27 316T60 401L69 416Q82 443 115 435Q133 430 151 426T189 418Q189 416 189 415T190 412Q178 404 166 397T143 380Q134 370 128 358T123 330Q146 325 169 322T217 314L236 233Q236 223 233 215T226 198T218 178T209 150L198
102ZM120 22Q130 45 138 69T154 117L151 130Q146 147 145 179T148 247Q137 261 130 276T123 312Q118 312 115 313Q113 310 111 308T108 302Q90 248 81 192T70 77Q69 63 71 48T76 18Q77 13 81 7T90 -1Q94 -3 99 0T109 6Q117 12 120 22Z" />
<glyph unicode="p" glyph-name="p" horiz-adv-x="373" d="M75 -51Q68 -96 78 -121T106 -142Q109 -141 110 -144T113 -153T114 -163T110 -169Q92 -178 66 -183T11 -171Q-4 -162 -11 -150T-21 -124T-24 -95T-22 -63Q-20 -47 -14 -20T-1 45Q0 50 0 67T2 91Q6 120
12 147T21 219L25 288Q25 297 21 304Q16 315 21 325T37 337Q42 339 47 339T58 339Q81 339 95 338T116 329T127 308T133 267Q135 248 133 228T129 182Q134 190 137 194T143 201Q154 218 165 236T189 271Q213 304 245 317T317 329Q333 328 348 315T365 282Q365 276
365 263T363 235T359 208T354 189Q348 160 328 130T277 73Q239 39 215 35T173 44Q170 47 168 50T171 58Q173 66 182 75T196 92Q233 128 259 168T292 266Q293 269 292 280T283 299Q275 295 270 293T260 287Q246 277 226 255T185 207T145 153T113 104Q106 82 99 56Q93
34 87 6T75 -51Z" />
<glyph unicode="q" glyph-name="q" horiz-adv-x="364" d="M329 105Q345 107 361 116T392 135Q394 131 392 124Q390 118 385 109T365 87Q364 86 360 84T350 79T341 75T337 71Q336 42 335 19T333 -25T328 -70T321 -121Q314 -162 307 -202T288 -283Q283 -303 274
-322T253 -361Q231 -398 184 -393Q161 -391 142 -382T110 -357T89 -323T82 -281Q84 -245 88 -209T98 -138Q102 -113 110 -90T126 -43L159 63L162 81Q151 83 147 77T138 65Q115 37 85 34T27 53Q18 61 13 73T0 100L6 154Q16 170 21 189Q30 231 47 268T84 342Q84 342
86 344Q93 365 104 377T130 396T162 402T198 401Q208 399 217 399T237 397Q243 395 249 393T264 388Q255 377 247 375T227 373Q168 374 146 316Q133 282 120 249T92 183Q83 159 83 135T79 86L87 83Q95 91 103 100T120 119Q144 151 168 183T215 249Q217 252 218
255T222 262Q227 272 230 277T237 284T247 286T264 284Q273 282 282 281T299 278Q319 271 324 261T325 230L319 201L300 138Q305 137 308 132T314 120T320 109T329 105ZM253 -269Q265 -223 273 -182T288 -100T297 -17T302 73Q302 78 301 83T297 93H288Q283 84 279
75T271 56Q263 31 256 6T237 -43Q228 -64 223 -81T213 -113T206 -146T198 -187Q195 -209 193 -230T188 -273Q185 -296 191 -316T203 -358Q203 -360 206 -362T212 -368Q218 -360 223 -353T232 -337Q244 -305 253 -269Z" />
<glyph unicode="r" glyph-name="r" horiz-adv-x="295" d="M258 388Q293 399 315 371Q324 360 324 347T319 320Q310 297 301 273T284 225Q281 217 273 202T261 179V158Q255 158 249 158T238 161Q212 169 206 181T207 220Q215 244 223 268T240 316L249 345Q238 342
233 336T223 323Q195 280 173 235T137 139Q129 111 120 85T100 31Q95 20 95 9T104 -14Q87 -25 69 -26T36 -20T12 1T1 35Q0 51 3 66T8 98L12 133Q15 155 17 171T21 204T25 237T32 279Q33 311 40 342T55 406Q60 425 67 429T94 431Q111 428 119 424T137 411Q122 359
113 307T112 198L153 265Q170 293 186 321T228 370Q235 375 242 380T258 388Z" />
<glyph unicode="s" glyph-name="s" horiz-adv-x="306" d="M246 68Q269 72 288 88T336 134Q336 108 327 88T304 54T274 31T243 18Q228 -19 206 -43T137 -75Q79 -85 54 -70T25 -11Q23 14 33 36T66 68Q76 72 86 72T106 73T128 71T152 71Q155 88 154 105T152 139Q152
168 144 196T122 251Q119 256 116 260T109 269Q104 255 96 237T75 196Q61 170 45 142T0 84Q5 94 7 109T17 148Q26 177 40 215T75 307Q75 308 74 309Q88 319 104 318T134 309Q172 292 200 266T239 197Q245 176 249 144T246 68ZM82 -49Q94 -51 106 -47T129 -33T145
-6T153 32Q138 35 119 37T88 41Q71 44 62 26Q54 12 53 -1T55 -24T66 -41T82 -49Z" />
<glyph unicode="t" glyph-name="t" horiz-adv-x="157" d="M269 527Q283 516 277 509T259 495Q232 479 199 474T136 462Q134 462 133 461Q127 438 121 416T107 370Q102 352 97 329T87 283T80 241T81 214Q84 207 82 199Q79 179 76 158T70 117Q69 81 88 41Q94 47
99 51T107 61Q129 81 150 98T184 138Q181 122 177 107Q173 93 167 79T151 51Q143 36 131 21T105 -4T75 -19T45 -14Q42 -12 39 -5T33 12T26 29T22 41Q13 62 9 83T7 129Q9 152 9 176T8 224Q9 256 10 304T19 403Q21 413 22 425T25 451H21Q-5 451 -30 450T-81 451Q-85
451 -91 453T-103 458T-111 466T-107 476Q-103 480 -95 481T-76 483T-57 483T-43 484Q-26 488 -11 492T21 499Q27 501 29 501Q31 533 33 558T38 590Q40 598 39 603Q33 636 53 665Q55 669 57 679Q59 687 59 694T61 708Q65 722 69 736T79 765Q99 770 117 768T154
761Q163 759 167 752T173 736Q174 727 173 718Q166 671 160 625T147 532L145 516Q168 518 191 522T237 529Q237 536 241 537T250 538T261 533T269 527Z" />
<glyph unicode="u" glyph-name="u" horiz-adv-x="359" d="M309 56Q315 62 325 72T346 94T368 116T389 134Q380 110 374 95T363 68T352 48T341 29Q325 9 305 7T261 12Q222 24 217 66Q216 77 215 87T208 108Q205 103 202 98T197 86Q191 71 185 57T174 27Q168 6 151
-8T111 -28T64 -29T21 -7Q-2 14 0 47Q1 73 2 98T6 149Q7 154 7 160T7 173L32 254Q40 282 48 310T66 366Q70 379 73 386T80 397T92 402T113 404Q125 405 134 405T150 403T165 398T184 389L175 372Q173 367 170 363T166 354Q159 309 147 266T124 177Q120 159 118
141T112 106Q111 99 110 93T107 79Q96 49 108 17Q119 23 123 33T133 53Q151 94 168 134T203 216Q212 236 220 255T231 297Q232 305 237 313T247 330Q256 329 265 330T285 331T304 331T325 325L312 292Q308 281 304 270T299 247Q296 184 296 121Q297 106 300 91T305
59L303 52Q307 54 309 56Z" />
<glyph unicode="v" glyph-name="v" horiz-adv-x="294" d="M264 82Q279 86 292 102T324 138Q318 84 296 59T252 32Q238 31 224 45T202 77Q185 47 169 17T145 -30Q135 -54 110 -48Q100 -46 91 -44T72 -37Q66 -35 59 -34T45 -30T33 -23T26 -13Q19 -1 17 23T7 70Q8
81 4 92T0 116Q0 130 0 146T2 179Q3 197 5 216Q7 251 13 270T19 299Q18 325 44 321Q58 318 71 315T99 308Q102 308 105 307T111 303Q114 290 112 278T104 249T91 211T76 157Q71 135 72 109T77 59T90 18T109 -4Q112 0 119 11T132 36T144 60T151 73L170 112Q177 124
177 136T174 161Q168 187 170 211T193 256Q197 261 202 264T212 267Q230 266 248 264T285 259L245 156Q241 148 238 141T231 129Q233 97 242 88T264 82Z" />
<glyph unicode="w" glyph-name="w" horiz-adv-x="410" d="M389 125Q396 118 407 118T440 133Q437 121 431 112T418 96T405 86T396 83Q393 83 387 88T373 99L355 115Q352 104 350 85T342 36Q337 16 326 4T298 -12T264 -12T229 7Q217 18 213 30T207 56L205 130Q204
142 202 154T198 179Q196 179 195 179T191 180Q184 162 177 144T164 107Q156 81 149 55T132 3Q123 -21 108 -26T67 -21Q47 -13 32 2T5 35Q0 43 0 53T1 72Q2 87 3 109T5 154T7 200T9 238V241Q11 250 13 266T18 301T22 335T27 361Q32 380 36 390T47 404T67 407T100
399Q111 397 121 392T144 382Q140 374 138 369T132 360Q100 334 113 294Q113 292 114 290T113 286Q104 274 100 261T95 234T93 206T89 177Q83 144 79 111T69 43Q67 35 67 28T79 13L100 55Q126 114 152 172T206 289Q219 317 256 291Q251 228 251 166T258 41Q260
41 262 41T266 40L273 56Q279 84 282 98T289 124T299 148T317 188Q324 203 324 221T327 256L332 290Q335 305 353 307Q363 308 373 308T390 299Q405 280 397 256Q383 215 374 174Q373 170 373 163T376 149T381 135T389 125Z" />
<glyph unicode="x" glyph-name="x" horiz-adv-x="279" d="M299 125Q301 128 303 131T309 136Q306 113 300 88T285 39T265 -5T242 -39Q228 -56 214 -58T187 -54T159 -34T131 -3L115 16L77 -31Q74 -34 70 -37T60 -40Q46 -40 36 -40T23 -27Q21 -13 30 -3Q44 15 57
32T85 67Q107 93 99 126Q97 131 96 140T92 160T88 181T85 196L83 209L75 195Q61 169 45 141T0 83Q5 94 7 109T17 147Q26 176 38 213T72 305Q73 332 102 329Q149 324 157 275Q158 268 159 254T163 224T167 193T172 169Q183 182 192 191T208 211Q214 219 220 232T234
257T249 279T269 290Q275 290 275 284T273 267T266 243T257 217Q241 197 226 178T196 139Q193 135 190 130T188 121Q193 91 199 61T211 1Q211 -1 213 -2T218 -6Q221 -3 230 13T250 49T275 91T299 125Z" />
<glyph unicode="y" glyph-name="y" horiz-adv-x="396" d="M426 134Q418 112 409 94T391 62T375 35T366 13Q363 -6 363 -24T366 -61T371 -99T372 -137Q371 -156 371 -184T367 -244T358 -308T340 -366T310 -408T263 -427Q213 -430 189 -400T159 -319T160 -206T179
-83T203 27T220 103Q211 86 200 61T176 10T145 -34T107 -59Q78 -66 57 -54T23 -21T2 26T-6 75Q-8 106 -3 137T8 200Q11 217 15 228T26 245T46 250T79 242Q98 236 104 227T111 207T106 182T100 152Q96 123 94 94T89 35Q87 23 86 11T86 -9T96 -18T120 -10Q127 -6
133 2T145 19T155 38T164 54Q178 77 190 100T213 147Q222 167 226 188T239 228Q249 249 266 254T301 254T330 232T341 192Q341 181 338 170T332 148T329 127T333 106Q341 90 352 90T375 97T400 116T426 134ZM338 -70Q338 -63 338 -40T338 7T333 50T319 68Q312 67
305 45T292 -6T281 -59T275 -92Q268 -121 260 -164T248 -251T253 -336T287 -399Q305 -364 315 -323T331 -239T337 -152T338 -70Z" />
<glyph unicode="z" glyph-name="z" horiz-adv-x="322" d="M242 10Q253 22 262 32T280 51Q293 68 309 85T352 133Q347 91 331 55T295 -11Q287 -23 276 -32T254 -51Q237 -67 213 -70T163 -69T111 -56T63 -39Q50 -41 46 -41T29 -33Q24 -29 24 -16T29 3Q26 20 33 33T53
60Q87 94 119 129T187 203Q196 215 205 224T222 242Q211 242 201 243T180 244Q165 244 151 244T122 245H114Q107 237 98 223T77 189Q63 163 46 138T0 83Q5 94 7 109T17 147Q21 162 28 179T44 213T64 246T88 275Q88 275 89 276H97Q102 277 114 275T131 272Q145 274
157 274T183 274Q191 275 201 276T219 275Q223 274 227 273T236 269L247 267Q263 279 284 271Q297 266 301 253T304 223Q277 195 257 173T218 131T180 88T134 39Q120 22 109 12T89 -5Q97 -9 109 -13T136 -19Q149 -21 158 -23T179 -24T204 -15T242 10Z" />
<glyph unicode="{" glyph-name="braceleft" horiz-adv-x="370" d="M394 -21Q392 -46 383 -61T362 -91Q357 -97 352 -102T341 -115Q326 -138 305 -148T260 -156T214 -139T175 -98Q155 -66 145 -33T132 38Q131 67 131 95T128 153Q128 163 127 173T125 195Q110 199
97 199T70 198T43 199T17 209Q12 212 9 216T0 225Q4 240 12 244T30 250Q53 255 75 263T115 292Q138 316 142 354Q146 381 151 406T161 459Q163 472 162 486T162 514Q165 571 179 621T214 721Q230 762 271 759Q294 757 315 749T355 723Q350 719 347 715T339 712Q319
717 310 706T294 674Q278 614 264 554T244 430Q238 362 210 301Q202 283 191 268T169 236Q169 233 173 229Q199 215 204 192T210 139Q210 104 212 68T216 -3Q218 -40 236 -65T274 -118L394 -21Z" />
<glyph unicode="|" glyph-name="bar" horiz-adv-x="208" d="M118 718Q123 741 149 729Q147 681 146 633T141 535Q136 462 129 390T118 243Q116 205 118 166T123 89Q123 85 124 82T124 74L111 -128Q87 -136 73 -128T57 -94Q56 -59 57 -25T64 45Q72 94 76 143T78
243Q76 288 77 333T84 423Q93 487 99 551T112 681Q114 700 118 718Z" />
<glyph unicode="}" glyph-name="braceright" horiz-adv-x="339" d="M294 251Q301 249 307 243T322 228Q316 223 313 219T305 213Q283 205 263 195T223 170Q202 153 198 135T212 94Q226 77 228 60T231 23Q232 5 232 -13T231 -49Q231 -57 228 -64T220 -76Q202 -93
183 -105T140 -124Q119 -129 99 -138T57 -143Q44 -141 31 -139T7 -123Q8 -108 15 -104T31 -98Q59 -96 83 -86T132 -62Q140 -57 147 -52T161 -40Q170 -32 172 -22T168 6Q155 41 145 78T123 152Q118 164 120 170T131 182L193 223Q187 228 184 232T175 239Q168 243
161 245T146 252Q121 269 117 286T122 333Q129 353 133 375T142 418L205 669Q207 677 208 685T213 706Q201 708 192 710T172 712Q156 712 141 711T110 710Q101 711 92 714T71 721Q76 729 78 735T83 741Q105 744 127 746T172 748T217 742T262 725Q296 708 303 689T296
631Q285 602 273 575T249 518Q241 494 235 469T220 419L214 399V400L200 328L193 288Q198 271 209 268T235 264Q249 263 264 260T294 251ZM175 108L172 110V107L175 108ZM185 321L183 320L185 318V321ZM269 688L270 687V689L269 688Z" />
<glyph unicode="~" glyph-name="asciitilde" horiz-adv-x="445" d="M263 139Q235 147 212 157T178 182Q168 193 154 197T122 204Q115 205 106 202T92 193Q84 187 79 179T64 164Q62 161 57 159T46 154Q41 158 37 161T33 168Q30 178 33 189Q47 222 85 247Q101 258
121 261T167 263Q202 260 229 250T281 223Q295 214 315 205Q335 196 354 204Q363 208 373 211T392 217Q397 219 403 219T413 219Q416 217 416 213T415 207Q406 193 392 181Q378 170 368 164T338 146Q333 143 322 141T300 138T278 137T263 139Z" />
</font>
</defs>
</svg>
